Destacados

The Doors - Morrison Hotel 50th Anniversary Deluxe (2020)

 [CD1]

DR10 -1.07 dB -13.76 dB 4:02 01-Roadhouse Blues

DR11 -0.74 dB -13.87 dB 4:00 02-Esperando el sol

DR11 -0.54 dB -14.22 dB 2:55 03-You Make Me Real

DR12 -0.96 dB -15.02 dB 2:52 04-Peace Frog

DR12 -2.53 dB -16.63 dB 2:14 05-Blue Sunday

DR10 -1.43 dB -13.27 dB 3:09 06-Barco de tontos

DR10 -1,55 dB -13,86 dB 4:12 07-Land Ho!

DR13 -0.83 dB -17.08 dB 4:17 08-The Spy

DR11 -1.06 dB -14.23 dB 2:49 09-Queen Of The Highway

DR11 -2.86 dB -17.74 dB 2:35 10-Indian Summer

DR13 -0.31 dB -16.22 dB 4:35 11-Maggie M'GillNúmero de pistas: 11Valor DR oficial: DR11

[CD2]

DR11 -10.35 dB -29.63 dB 1:12 01-Queen Of The Highway (Toma 1) [She Was A Princess]

DR13 -0.31 dB -20.88 dB 6:24 02-Reina de la carretera (variastomas ) 

DR13 -0.57 dB -18.59 dB 3:17 03-Reina de la autopista (toma 44) [Él era un monstruo]

DR16 -0.36 dB -22.47 dB 5:05 04-Queen Of The Highway (Toma 12) [Nadie pudosalvarla ] 

DR15 0.00 dB -18.41 dB 4:02 05-Queen Of The Highway (Toma 14) [Save The Blind Tiger] [Con sobregrabación de guitarra de Robby Krieger]

DR14 -0,81 dB -18,62 dB 4:31 06-Queen Of The Highway (Toma 1) [American Boy - American Girl]

DR11 -3,71 dB -18,64 dB 1:00 07-Queen Of The Highway (toma 5, 6 y 9) [Dancing Through The Midnight Whirlpool]

DR13 -0.58 dB -16.42 dB 4:03 08-Queen Of The Highway (toma 14) [Start It All Over]

DR12 -4.68 dB -22.06 dB 1:21 09-Nunca seréfalso

DR10 0.00 dB -25.87 dB 1:02 10-Queen Of The Highway (Toma desconocida)

DR15 -0.23 dB -17.66 dB 5:14 11-Roadhouse Blues (Toma 14) [Mantén tus ojos en la carretera]

DR14 -0.75 dB -18.28 dB 3:40 12-Money (Eso es lo que quiero)

DR13 -0.43 dB - 17,90 dB 6:06 13-Rock Me Baby

DR13 0,00 dB -17,27 dB 5:10 14-Roadhouse Blues (tomas 6 y 7) [Tus manos sobre el volante]

DR12 0,00 dB -16,30 dB 5:48 15-Roadhouse Blues ( Toma 8) [Vamos a la casa de lacarretera ]

 DR14 -0,46 dB -17,15 dB 5:00 16-Roadhouse Blues (tomas 1 y 2) [Vamos apasar un buen rato]

DR13 -0,46 dB -16,82 dB 4:06 17-Roadhouse Blues (Toma 5, 6 y 14) [Let It Roll, Baby, Roll]

DR14 -0.06 dB -17.66 dB 5:43 18-Peace Frog / Blue Sunday (Toma 4)

DR13 -1.04 dB -17.09 dB 3:38 19-Peace Frog (Toma 12)Número de pistas: 19Valor DR oficial: DR13

  • Año: 2020
  • Formato De Audio: FLAC
  • Musica: Musica
Compartido por
(0 votos)
Visto 133 Veces
Descargar TorrenT
Compartido por
(0 votos)
Visto 133 Veces

Usuario en la conversacion

  • Tinoski
Tinoski
This comment was minimized by the moderator on the site

Buenos dias:
Algún disco de rancheras de Juan Gabriel?
puede ser en MP3 a 320?
Gracias

Tinoski
This comment was minimized by the moderator on the site

Buenos dias:
A ver si podeis haceros con un album recopilatorio de un grupo que sóno mucho aquí en España a mediados de los 80 comienzos de los 90.
"Dinamita Pa Los Pollos". MP3 a 320??
Un saludo y gracias.

There are no comments posted here yet

Deja tus comentarios

Próximamente